电影下载

杀父疑案 Fortune.Is.a.Woman.1957.1080p.BluRay.x264-BiPOLAR 8.36GB

杀父疑案 Fortune.Is.a.Woman.1957.1080p.BluRay.x264-BiPOLAR 8.36GB

  • 版本:高清完整版
  • 发布:

电影介绍


    杀父疑案 Fortune.Is.a.Woman.1957.1080p.BluRay.x264-BiPOLAR 8.36GB


◎译  名 杀父疑案
◎片  名 Fortune Is a Woman
◎年  代 1957
◎产  地 英国 / 美国
◎类  别 剧情 / 犯罪
◎语  言 英语
◎上映日期 1957-04-15(英国)
◎IMDb链接 https://www.imdb.com/title/tt0050405/
◎豆瓣链接 https://movie.douban.com/subject/34834057/
◎片  长 95分钟
◎导  演 西德尼·吉里亚特 Sidney Gilliat (id:1008187)
◎编  剧 西德尼·吉里亚特 Sidney Gilliat (id:1008187)
       弗兰克·劳恩义 Frank Launder (id:1008203)
       瓦尔·瓦伦丁 Val Valentine (id:1008395)
       温斯顿·格雷汉姆 Winston Graham (id:1011144)
◎演  员 杰克·霍金斯 Jack Hawkins (id:1049902)
       阿琳·达尔 Arlene Dahl (id:1022851)
       丹尼斯·普莱斯 Dennis Price (id:1012579)
       格佛雷·肯 Geoffrey Keen (id:1105060)
       伊恩·亨特 Ian Hunter (id:1109321)
       克里斯托弗·李 Christopher Lee (id:1054467)
◎简  介

  An insurance investigator runs into an ex-girlfriend, who is still as beautiful as he remembered her, but is now married. He soon finds himself involved in arson, blackmail, and murder.
  1. Video
  2. ID                                       : 1
  3. Format                                   : AVC
  4. Format/Info                              : Advanced Video Codec
  5. Format profile                           : [email protected]
  6. Format settings                          : CABAC / 4 Ref Frames
  7. Format settings, CABAC                   : Yes
  8. Format settings, Reference frames        : 4 frames
  9. Codec ID                                 : V_MPEG4/ISO/AVC
  10. Duration                                 : 1 h 34 min
  11. Bit rate                                 : 12.4 Mb/s
  12. Width                                    : 1 920 pixels
  13. Height                                   : 1 038 pixels
  14. Display aspect ratio                     : 1.85:1
  15. Frame rate mode                          : Constant
  16. Frame rate                               : 23.976 (24000/1001/189150) FPS
  17. Color space                              : YUV
  18. Chroma subsampling                       : 4:2:0
  19. Bit depth                                : 8 bits
  20. Scan type                                : Progressive
  21. Bits/(Pixel*Frame)                       : 0.260
  22. Stream size                              : 8.20 GiB (98%)
  23. Writing library                          : x264 core 164 r3094 bfc87b7
  24. Encoding settings                        : cabac=1 / ref=4 / deblock=1:-3:-3 / analyse=0x3:0x133 / me=umh / subme=10 / psy=1 / psy_rd=1.00:0.15 / mixed_ref=1 / me_range=24 / chroma_me=1 / trellis=2 / 8x8dct=1 / cqm=0 / deadzone=21,11 / fast_pskip=1 / chroma_qp_offset=-3 / threads=18 / lookahead_threads=3 / sliced_threads=0 / nr=0 / decimate=1 / interlaced=0 / bluray_compat=0 / constrained_intra=0 / bframes=8 / b_pyramid=2 / b_adapt=2 / b_bias=0 / direct=3 / weightb=1 / open_gop=0 / weightp=2 / keyint=250 / keyint_min=23 / scenecut=40 / intra_refresh=0 / rc_lookahead=60 / rc=crf / mbtree=1 / crf=22.0 / qcomp=0.60 / qpmin=0 / qpmax=69 / qpstep=4 / ip_ratio=1.40 / aq=3:0.50
  25. Language                                 : English
  26. Default                                  : Yes
  27. Forced                                   : No
  28. Color range                              : Limited
  29. Matrix coefficients                      : BT.709
  30. Audio
  31. ID                                       : 2
  32. Format                                   : FLAC
  33. Format/Info                              : Free Lossless Audio Codec
  34. Codec ID                                 : A_FLAC
  35. Duration                                 : 1 h 34 min
  36. Bit rate mode                            : Variable
  37. Bit rate                                 : 237 kb/s
  38. Channel(s)                               : 1 channel
  39. Channel layout                           : C
  40. Sampling rate                            : 48.0 kHz
  41. Frame rate                               : 11.719 FPS (4096 SPF)
  42. Bit depth                                : 16 bits
  43. Compression mode                         : Lossless
  44. Stream size                              : 160 MiB (2%)
  45. Writing library                          : libFLAC 1.2.1 (UTC 2007-09-17)
  46. Language                                 : English
  47. Default                                  : Yes
  48. Forced                                   : No
  49. Text #1
  50. ID                                       : 3
  51. Format                                   : UTF-8
  52. Codec ID                                 : S_TEXT/UTF8
  53. Codec ID/Info                            : UTF-8 Plain Text
  54. Duration                                 : 1 h 30 min
  55. Bit rate                                 : 78 b/s
  56. Count of elements                        : 1687
  57. Stream size                              : 52.1 KiB (0%)
  58. Title                                    : English
  59. Language                                 : English
  60. Default                                  : No
  61. Forced                                   : No
  62. Text #2
  63. ID                                       : 4
  64. Format                                   : UTF-8
  65. Codec ID                                 : S_TEXT/UTF8
  66. Codec ID/Info                            : UTF-8 Plain Text
  67. Duration                                 : 1 h 34 min
  68. Bit rate                                 : 79 b/s
  69. Count of elements                        : 1783
  70. Stream size                              : 54.8 KiB (0%)
  71. Title                                    : English SDH
  72. Language                                 : English
  73. Default                                  : No
  74. Forced                                   : No
  75. Text #3
  76. ID                                       : 5
  77. Format                                   : PGS
  78. Muxing mode                              : zlib
  79. Codec ID                                 : S_HDMV/PGS
  80. Codec ID/Info                            : Picture based subtitle format used on BDs/HD-DVDs
  81. Duration                                 : 1 h 34 min
  82. Bit rate                                 : 6 210 b/s
  83. Count of elements                        : 3569
  84. Stream size                              : 4.20 MiB (0%)
  85. Title                                    : English SDH
  86. Language                                 : English
  87. Default                                  : No
  88. Forced                                   : No
  89. Menu
  90. 00:00:00.000                             : en:00:00:00.000
  91. 00:03:13.902                             : en:00:03:13.902
  92. 00:08:41.438                             : en:00:08:41.438
  93. 00:13:30.560                             : en:00:13:30.560
  94. 00:19:08.230                             : en:00:19:08.230
  95. 00:21:45.888                             : en:00:21:45.888
  96. 00:26:40.015                             : en:00:26:40.015
  97. 00:33:14.910                             : en:00:33:14.910
  98. 00:41:50.758                             : en:00:41:50.758
  99. 00:48:36.831                             : en:00:48:36.831
  100. 00:52:25.893                             : en:00:52:25.893
  101. 00:57:23.357                             : en:00:57:23.357
  102. 01:02:19.986                             : en:01:02:19.986
  103. 01:07:15.281                             : en:01:07:15.281
  104. 01:14:25.461                             : en:01:14:25.461
  105. 01:24:33.777                             : en:01:24:33.777
  106. 01:34:07.058                             : en:01:34:07.058
复制代码




                                       
                                       

                                       
                                       
                                       





    电影下载,MP4下载,高清电影,电影排行榜,电影票房
标签:

热门电影下载

最新电影下载

电影票房排行榜